7/24/16

Batman V Superman - Dawn Of Justice (2016) (English Movie) Extended Hindi Audio Only



Info:

Batman V Superman - Dawn Of Justice (2016) Extended Hindi Audio Only 

Format : AC-3
Duration : 3h 2mn 33sec
Bit rate mode : Constant
Bit rate : 192 Kbps
Channel(s) : 2 channels
Channel positions : Front: L R
Sampling rate : 48.0 KHz
Compression mode : Lossy
Stream size : 251 MiB (100%)
Language : Hindi
Default : Yes
Forced : No


Audio Link:


Batman V Superman - Dawn Of Justice (2016) Extended Hindi Audio Only

Format : AC-3
Duration : 3h 2mn 33sec
Bit rate mode : Constant
Bit rate : 448 Kbps
Channel(s) : 6 channels
Channel positions : Front: L C R, Side: L R, LFE
Sampling rate : 48.0 KHz
Compression mode : Lossy
Stream size : 585 MiB (100%)
Language : Hindi
Default : Yes
Forced : No

Audio Link:



Movie Link :


Note:
1. Above both audios are in Perfect Sync With Any Video Copy Having 23.976 Fps.
2. Tested And In Perfect Sync with ETRG 720p & 1080p

In the above graph the horizontal line that touches just above 15 Khz is Original 448 Kbps Audio While the one touching 10 Khz Line is the Extended Parts.

Have left the theatrical audio untouched, High in quality


Check for yourself the quality.

Original Audio Credit : PyZ (Thanks)

No comments:

Post a Comment